<?xml version="1.0" standalone="no"?>
<!DOCTYPE svg PUBLIC "-//W3C//DTD SVG 1.1//EN" "http://www.w3.org/Graphics/SVG/1.1/DTD/svg11.dtd" >
<svg xmlns="http://www.w3.org/2000/svg">
<metadata></metadata>
<defs>
<font id="glyphicons_socialregular" horiz-adv-x="2400" >
<font-face units-per-em="2400" ascent="1920" descent="-480" />
<missing-glyph horiz-adv-x="500" />
<glyph />
<glyph />
<glyph unicode="&#xd;" />
<glyph unicode=" " />
<glyph unicode="&#xa0;" />
<glyph unicode="&#x2000;" horiz-adv-x="1200" />
<glyph unicode="&#x2001;" />
<glyph unicode="&#x2002;" horiz-adv-x="1200" />
<glyph unicode="&#x2003;" />
<glyph unicode="&#x2004;" horiz-adv-x="800" />
<glyph unicode="&#x2005;" horiz-adv-x="600" />
<glyph unicode="&#x2006;" horiz-adv-x="400" />
<glyph unicode="&#x2007;" horiz-adv-x="400" />
<glyph unicode="&#x2008;" horiz-adv-x="300" />
<glyph unicode="&#x2009;" horiz-adv-x="480" />
<glyph unicode="&#x200a;" horiz-adv-x="133" />
<glyph unicode="&#x202f;" horiz-adv-x="480" />
<glyph unicode="&#x205f;" horiz-adv-x="600" />
<glyph unicode="&#xe000;" horiz-adv-x="500" d="M0 0z" />
<glyph unicode="&#xe001;" d="M0 250v1900q0 103 73.5 176.5t176.5 73.5h1900q103 0 176.5 -73.5t73.5 -176.5v-1900q0 -104 -73 -177t-177 -73h-1900q-103 0 -176.5 73.5t-73.5 176.5zM575 1351q0 -134 52.5 -231t146.5 -135q14 -6 27 -6q21 0 37 13t21 35l18 71q12 42 -18 76q-52 61 -52 155 q0 73 27 142.5t76.5 126t128.5 91t174 34.5q157 0 248 -83t91 -226q0 -189 -72 -315.5t-179 -126.5q-59 0 -92 43q-31 39 -19 91q6 26 35 121q44 142 44 200q0 73 -41 118t-108 45q-85 0 -143 -75t-58 -184q0 -76 27 -142q-142 -487 -153 -536q-34 -139 -4 -347 q2 -16 14 -26t28 -10q20 0 35 18q125 162 163 299q7 25 85 252q38 -36 93.5 -57.5t112.5 -21.5q146 0 262 82t181 227.5t65 327.5q0 79 -25.5 157t-76.5 146.5t-120.5 120.5t-165 82.5t-202.5 30.5q-150 0 -277.5 -50.5t-210.5 -133.5t-129 -186.5t-46 -212.5z" />
<glyph unicode="&#xe002;" d="M0 250v1900q0 103 73.5 176.5t176.5 73.5h1900q103 0 176.5 -73.5t73.5 -176.5v-1900q0 -104 -73 -177t-177 -73h-1900q-103 0 -176.5 73.5t-73.5 176.5zM271 1630q0 -21 26 -39l304 -240q-34 -27 -112.5 -89.5t-134.5 -107.5l-57 -44q-19 -16 -19 -40q0 -12 143.5 -105 t286.5 -181l144 -87l352 293l348 -302q498 323 548 357q15 10 21 17t3.5 13t-7 9.5t-17.5 11.5t-21 14l-301 240q39 30 118 90t139 105.5t62 46.5q26 12 26 36q0 30 -33 44l-513 330q-14 8 -32 8q-19 0 -34 -12l-319 -266l-319 266q-13 12 -33 12q-14 0 -27 -8l-515 -332 q-27 -15 -27 -40zM752 1350l450 281l446 -280l-448 -281zM794 608l370 -234q13 -8 27 -8q15 0 27 8l374 238l-392 330z" />
<glyph unicode="&#xe003;" d="M0 528v737q12 -68 39 -123t60.5 -91t78 -63t85.5 -41t88.5 -22t80.5 -10t68 -1v-106q0 -9 2.5 -16.5t8 -14t10 -10t12 -9t9.5 -7.5t10.5 -7.5t12.5 -9t10 -10t9.5 -14.5t5.5 -18q-59 0 -122 -5.5t-151 -20.5t-172.5 -50.5t-144.5 -87.5zM0 1474v676q0 103 73.5 176.5 t176.5 73.5h1900q103 0 176.5 -73.5t73.5 -176.5v-1900q0 -104 -73 -177t-177 -73h-1052q119 131 119 331q0 62 -19 121.5t-42.5 99.5t-67.5 87.5t-70 69.5t-74 62q-44 36 -65.5 54.5t-41.5 45t-20 46.5q0 21 14.5 43.5t30.5 37.5t51 44q36 30 55.5 48t52 55.5t50 72 t31.5 87.5t14 111q0 59 -2.5 99t-11 86t-25 78.5t-45 63.5t-69.5 54q35 7 63 10q28 4 41.5 6t38.5 7t38 11.5t28 15.5t21.5 22.5t6.5 30.5h-591q-10 0 -32.5 -1.5t-77.5 -10.5t-109 -24.5t-120 -47.5t-118 -75t-94.5 -112.5t-57.5 -154.5zM149 234q-8 123 107 219 q118 99 292 110q28 2 40 2q160 0 276 -79.5t124 -194.5q7 -90 -57 -169t-174 -122h-406q-88 36 -142.5 98t-59.5 136zM309 1357q-40 145 5 268q45 119 143 145q22 6 47 6q92 0 174 -81t116 -206q24 -98 14.5 -183.5t-53.5 -148.5t-109 -81q-22 -6 -47 -6q-92 0 -174 81 t-116 206zM1400 1400h400v-400h100v400h400v100h-400v400h-100v-400h-400v-100z" />
<glyph unicode="&#xe004;" d="M0 250v1900q0 103 73.5 176.5t176.5 73.5h1900q103 0 176.5 -73.5t73.5 -176.5v-1900q0 -104 -73 -177t-177 -73h-1900q-103 0 -176.5 73.5t-73.5 176.5zM378 1137q0 -163 116.5 -250t339.5 -87h1264q30 0 33 13.5t-19 28.5q-159 120 -218.5 228.5t-87.5 317.5 q-12 84 -57 161.5t-114 135.5t-161.5 92.5t-193.5 34.5q-79 0 -151.5 -24.5t-126.5 -62t-99.5 -87.5t-74 -97.5t-47.5 -94.5q-206 1 -304.5 -73.5t-98.5 -235.5z" />
<glyph unicode="&#xe005;" d="M0 250v1900q0 103 73.5 176.5t176.5 73.5h1900q103 0 176.5 -73.5t73.5 -176.5v-1900q0 -104 -73 -177t-177 -73h-1900q-103 0 -176.5 73.5t-73.5 176.5zM288 1824l4 -127l256 -37l450 -560v-277l-228 -33l-24 -134h882l16 144h-244v300l436 421l205 42l59 137h-800 l44 -137l182 -25l-269 -279l-316 423l229 22l17 120h-899z" />
<glyph unicode="&#xe006;" d="M0 250v1900q0 103 73.5 176.5t176.5 73.5h1900q103 0 176.5 -73.5t73.5 -176.5v-1900q0 -104 -73 -177t-177 -73h-1900q-103 0 -176.5 73.5t-73.5 176.5zM500 900q0 -89 43.5 -165.5t114.5 -127t160.5 -79t181.5 -28.5h400q92 0 181.5 28.5t160.5 79t114.5 127 t43.5 165.5v319q0 33 -23.5 57t-57.5 24l-88 7q-39 0 -68 27.5t-32 68.5q0 180 -121.5 288.5t-309.5 108.5h-300q-184 0 -292 -108t-108 -292v-500zM848 1401q0 41 29 69.5t69 28.5h257q40 0 68.5 -28.5t28.5 -69.5q0 -40 -28.5 -68.5t-68.5 -28.5h-257q-40 0 -69 28.5 t-29 68.5zM853 894q0 39 27 66t65 27h517q38 0 65 -27t27 -66q0 -38 -27 -65t-65 -27h-517q-38 0 -65 27t-27 65z" />
<glyph unicode="&#xe007;" d="M0 250v1900q0 103 73.5 176.5t176.5 73.5h1900q103 0 176.5 -73.5t73.5 -176.5v-1900q0 -104 -73 -177t-177 -73h-1900q-103 0 -176.5 73.5t-73.5 176.5zM413 1200q0 -98 28 -204l696 632q-8 8 -145.5 133t-151.5 137q-197 -101 -312 -288.5t-115 -409.5zM476 910 q91 -255 324 -391v685q0 -5 -23.5 -29t-58.5 -55.5t-77 -68.5t-77 -66.5t-61 -51.5t-27 -23zM900 469q106 -54 280 -54.5t289 47.5q127 51 236.5 137.5t180.5 205.5h-986v-336zM907 1934q1 -1 68.5 -60.5t150.5 -133t170 -152t145.5 -134.5t58.5 -63v538q-119 56 -313 56 q-142 0 -280 -51zM1600 900h331q46 143 52 267.5t-25 259.5q-27 128 -140 262.5t-218 191.5v-981z" />
<glyph unicode="&#xe008;" d="M0 250v1900q0 103 73.5 176.5t176.5 73.5h1900q103 0 176.5 -73.5t73.5 -176.5v-1900q0 -104 -73 -177t-177 -73h-1900q-103 0 -176.5 73.5t-73.5 176.5zM266 817q-11 -30 15 -55q199 -179 416.5 -270.5t472.5 -91.5q197 0 398 75t360 192q37 28 24 66q-14 39 -56 39 q-14 0 -28 -6q-336 -143 -689 -143q-399 0 -841 214q-16 8 -29 8q-31 0 -43 -28zM688 1128q0 -158 89.5 -252.5t239.5 -94.5q104 0 175.5 28t146.5 100q2 -3 9.5 -14t12.5 -19.5t15 -22.5t17.5 -23.5t18 -23t18 -19.5t17.5 -14.5t16 -7.5t14 2q40 24 114.5 72t100.5 70l9 7 q9 7 9.5 8t7.5 8t7 10.5t3 11.5t0 15.5t-6 17.5t-10.5 21.5t-17.5 25.5q-2 2 -11 14l-12 16t-11 16t-11.5 18.5t-10.5 18t-10 20.5t-6.5 21t-5 23.5t-1.5 23.5v346q0 32 -3 65.5t-13 79.5t-26.5 87t-46.5 83t-70 72t-99.5 49t-132.5 19q-71 0 -121.5 -3t-101 -11.5 t-86 -24.5t-68.5 -41t-55.5 -61.5t-40.5 -86t-30 -114.5q-5 -29 10.5 -51t47.5 -29l196 -22q23 1 40 19t22 44q9 45 41 70t83 25q52 0 77 -38q8 -12 8.5 -43t-2.5 -56l-4 -25q-226 -27 -321 -70q-110 -48 -170.5 -142t-60.5 -218zM1026 1163q0 78 62.5 121.5t151.5 48.5 q2 -16 4.5 -41t0.5 -79.5t-17 -81.5q-44 -82 -106 -82q-29 0 -49.5 13.5t-29.5 34t-13 37t-4 29.5zM1712 800q6 -20 47 -20h1q16 0 72 10t83 10q42 0 56 -3t20 -18t-7.5 -56.5t-61.5 -162.5q-4 -10 -8 -34t-1.5 -49.5t16.5 -29.5q12 0 17.5 -1t16 6t14 9.5t11.5 10.5l8 8 q42 35 72 95t41.5 118t10.5 107.5t-15 66.5q-19 23 -69 34t-78 11q-137 0 -223 -61q-32 -22 -23 -51z" />
<glyph unicode="&#xe009;" d="M0 250v1900q0 103 73.5 176.5t176.5 73.5h1900q103 0 176.5 -73.5t73.5 -176.5v-1900q0 -104 -73 -177t-177 -73h-1900q-103 0 -176.5 73.5t-73.5 176.5zM500 1300h200v-632q0 -72 24.5 -126.5t61.5 -85.5t88.5 -50t98 -25t98.5 -6h94q111 0 180.5 7.5t95 16.5t59.5 27 v281q-116 -74 -218 -74q-61 0 -121.5 29.5t-60.5 55.5v582h400v300h-400v400h-257q-5 -108 -16 -149q-21 -73 -79 -141q-41 -48 -103 -75.5t-103 -30.5l-42 -4v-300zM1642 550q0 -86 61 -147t147 -61t147 61t61 147t-61 147t-147 61t-147 -61t-61 -147z" />
<glyph unicode="&#xe010;" d="M0 250v1900q0 103 73.5 176.5t176.5 73.5h1900q103 0 176.5 -73.5t73.5 -176.5v-1900q0 -104 -73 -177t-177 -73h-1900q-103 0 -176.5 73.5t-73.5 176.5zM270 1233q0 -125 32.5 -240t86 -203.5t125 -163.5t146 -126t153.5 -86q-27 62 -224.5 602.5t-222.5 621.5 q-40 -84 -68 -199t-28 -206zM395 1689q18 0 98.5 2.5t154.5 4.5l73 2q15 0 15 -15t-15 -17l-124 -9l343 -1019l210 631l-141 389l-104 9q-14 0 -14 15q0 16 16 16l41 -3q40 -3 95.5 -5.5t93.5 -2.5q25 0 58 1t62.5 2.5t55 3.5t41.5 3l16 1q15 0 15 -15q1 -2 0 -5.5t-4.5 -7 t-9.5 -4.5l-124 -9l341 -1015l110 370q31 101 45 158t14 107q0 51 -15 103t-31.5 84.5t-43.5 77.5q-8 14 -23.5 39t-22.5 37.5t-16 31t-12.5 35t-3.5 33.5q0 54 34.5 93.5t100.5 39.5l70 -3q-10 11 -29.5 29t-84 64.5t-134 82.5t-176.5 65t-215 29q-122 0 -245.5 -39.5 t-221.5 -102.5t-174 -137.5t-119 -149.5zM885 389q101 -42 270 -42q185 0 317 59l-303 811q-240 -708 -284 -828zM1553 440l47 27q204 119 322 324.5t118 441.5q0 227 -108 425l-38 -13q6 -41 6 -86q0 -140 -65 -303z" />
<glyph unicode="&#xe011;" d="M0 250v1900q0 103 73.5 176.5t176.5 73.5h1900q103 0 176.5 -73.5t73.5 -176.5v-1900q0 -104 -73 -177t-177 -73h-1900q-103 0 -176.5 73.5t-73.5 176.5zM800 400h700v100h-200v1400h200v100h-700v-100h200v-1400h-200v-100z" />
<glyph unicode="&#xe012;" d="M0 250q0 -103 73.5 -176.5t176.5 -73.5h1900q104 0 177 73t73 177v1900q0 103 -73.5 176.5t-176.5 73.5h-1900q-103 0 -176.5 -73.5t-73.5 -176.5v-1900zM400 1418q0 40 26.5 62.5t73.5 19.5h300q18 0 28 1.5t26 11.5t24.5 30t15 60t6.5 97v200q0 59 7.5 69t54.5 11h188 q41 0 78.5 -45t54.5 -90l17 -45h400q75 0 137.5 -29.5t62.5 -70.5l2 -55q1 -55 2.5 -123t0 -170.5t-5.5 -204.5t-16 -218t-29.5 -218t-47.5 -197.5t-67.5 -163.5t-92.5 -109t-121 -41q-78 0 -141 -3.5t-89.5 -7.5t-47 -5.5t-28.5 2t-19 14.5t-15.5 29t-3.5 47t4 57t8 77 t7 90q3 50 35 79t75.5 34t86.5 3t73 -9l30 -7v-100h-100q-36 0 -49.5 -25t1 -50t48.5 -25h125q34 0 54.5 52.5t22.5 119t-2 128.5q-2 25 -21 40t-51.5 22t-66 10t-78 8t-74.5 13q-41 11 -73 38t-46.5 53t-26.5 46.5t-18 20.5q-8 0 -10.5 -70.5t-15.5 -141t-46 -70.5 q-85 0 -271.5 31t-225.5 70q-46 46 -89.5 199.5t-65 282.5t-21.5 166zM400 1600l400 380v-281q0 -28 -29 -63.5t-90 -35.5h-281zM1400 1100q4 -5 29 9.5t57.5 32.5t48.5 18q25 0 83.5 -31.5t81.5 -28.5q40 4 -8 95q-48 90 -119 159q-47 45 -73 46q-33 0 -59.5 -73 t-36.5 -146.5t-4 -80.5z" />
<glyph unicode="&#xe013;" d="M0 250v1900q0 103 73.5 176.5t176.5 73.5h1900q103 0 176.5 -73.5t73.5 -176.5v-1900q0 -104 -73 -177t-177 -73h-1900q-103 0 -176.5 73.5t-73.5 176.5zM247 900h470l316 496l-111 304h-464l109 -296zM966 1000l417 -700h469l-418 700l617 1100h-469z" />
<glyph unicode="&#xe014;" d="M0 250v1900q0 103 73.5 176.5t176.5 73.5h1900q103 0 176.5 -73.5t73.5 -176.5v-1900q0 -104 -73 -177t-177 -73h-1900q-103 0 -176.5 73.5t-73.5 176.5zM657 940q11 -32 29 -61q47 -6 81 7t66 34.5t59 27.5q30 -38 64 -106t63.5 -131.5t66.5 -127t87 -110.5t109 -64 q67 -19 143 -11.5t139 38t112 78t62.5 109t-9.5 130.5q-32 -1 -121 -34.5t-143 -22.5q-58 11 -112 67t-89 119t-78.5 135t-75.5 103q96 86 132.5 119.5t111 108t124 139.5t91.5 138q104 16 146 117q35 84 12 167q-20 71 -68 79q-57 10 -125 -76q-46 25 -107 48t-133 42 t-143 23.5t-132 -5t-104.5 -45.5t-56.5 -97q-6 -37 -5.5 -72t16.5 -64t46 -37q56 28 147.5 27.5t178.5 -21t156 -51.5q-75 -110 -170 -204t-232 -209q-94 90 -196 44q-78 -34 -123 -129q-53 -112 -19 -222z" />
<glyph unicode="&#xe015;" d="M0 250v1900q0 103 73.5 176.5t176.5 73.5h1900q103 0 176.5 -73.5t73.5 -176.5v-1900q0 -104 -73 -177t-177 -73h-1900q-103 0 -176.5 73.5t-73.5 176.5zM380 1187q0 -113 30 -221t84 -199t131 -168t168 -131t199 -84t221 -30t221 30t199 84t168 131t131 168t84 199 t30 221t-30 221t-84 199t-131 168t-168 131t-199 84t-221 30t-221 -30t-199 -84t-168 -131t-131 -168t-84 -199t-30 -221zM539 1186l3 1q67 0 148 4.5t238 27.5t294 63q21 -40 39 -81l-6 -2q-90 -29 -175.5 -78.5t-144.5 -98t-112 -105.5t-80.5 -93t-48.5 -69 q-155 188 -155 431zM558 1348q36 143 129 259t224 182q124 -172 234 -363q-294 -75 -587 -78zM812 644q15 26 34 53.5t64.5 78.5t98.5 95t136.5 93.5t178.5 83.5q97 -257 138 -489q-121 -47 -249 -47q-223 0 -401 132zM1085 1848q62 12 128 12q243 0 433 -157 q-16 -20 -38.5 -42.5t-62 -54.5t-99 -65.5t-127.5 -60.5q-102 183 -234 368zM1390 1341q134 58 224 127.5t136 124.5q126 -165 137 -376q-153 27 -303 27q-82 0 -148 -7q-33 77 -46 104zM1493 1089q61 8 118 8q135 0 265 -35q-23 -124 -91 -232.5t-170 -184.5 q-43 222 -122 444z" />
<glyph unicode="&#xe016;" d="M0 250v1900q0 103 73.5 176.5t176.5 73.5h1900q103 0 176.5 -73.5t73.5 -176.5v-1900q0 -104 -73 -177t-177 -73h-1900q-103 0 -176.5 73.5t-73.5 176.5zM299 918q0 -12 1 -18h900v800h-200v-700h-462l13 72q57 296 397 367l4 69q-237 -22 -406 -125 q-122 -75 -184 -189.5t-62 -230.5q0 -4 -0.5 -18.5t-0.5 -26.5zM1300 900h900v98q0 211 -254 367q-122 75 -258 100t-354 25h-33v-90h33q140 0 253 -24t184.5 -63.5t118 -92t64 -107.5t11.5 -112l-465 -1v300h-200v-400z" />
<glyph unicode="&#xe017;" d="M0 250v1900q0 103 73.5 176.5t176.5 73.5h550v-1867q0 -14 7 -17t17 7l376 343l377 -343q9 -10 16 -7t7 17v1867h550q103 0 176.5 -73.5t73.5 -176.5v-1900q0 -103 -73.5 -176.5t-176.5 -73.5h-1900q-104 0 -177 73t-73 177z" />
<glyph unicode="&#xe018;" d="M0 250v1900q0 103 73.5 176.5t176.5 73.5h1900q103 0 176.5 -73.5t73.5 -176.5v-1900q0 -104 -73 -177t-177 -73h-1900q-103 0 -176.5 73.5t-73.5 176.5zM467 1819q0 -76 53.5 -129.5t129.5 -53.5t129.5 53.5t53.5 129.5t-53.5 129t-129.5 53t-129.5 -53t-53.5 -129z M500 500h300v1000h-300v-1000zM1000 500h300v551q0 51 10 75q13 32 18 43t20 32.5t36 29.5t51 8q82 0 123.5 -56.5t41.5 -153.5v-529h300v665q0 51 -1.5 90t-7 72t-10 57t-17 43t-22.5 31t-31 21t-37 13.5t-47 7t-55 3t-66 0.5q-83 0 -146 -17.5t-96 -45.5t-48.5 -56 t-15.5 -54v170h-300q2 -39 2 -289t-1 -481z" />
<glyph unicode="&#xe019;" d="M0 250v1900q0 103 73.5 176.5t176.5 73.5h1900q103 0 176.5 -73.5t73.5 -176.5v-1900q0 -104 -73 -177t-177 -73h-1900q-103 0 -176.5 73.5t-73.5 176.5zM369 300h631v453l-157 122l41 62l116 -89v252h200v-190l214 116l36 -68l-250 -136v-147l374 203l37 -68l-411 -223 v-287h808l-826 1923z" />
<glyph unicode="&#xe020;" d="M0 250v1900q0 104 73 177t177 73h1900q104 0 177 -73t73 -177v-1900q0 -104 -73 -177t-177 -73h-1900q-104 0 -177 73t-73 177zM400 1500h200l297 -350l3 2v-283l231 232l720 -552l-558 714l238 237h-283l2 3l-350 297v200z" />
<glyph unicode="&#xe021;" d="M0 250v1900q0 103 73.5 176.5t176.5 73.5h1900q103 0 176.5 -73.5t73.5 -176.5v-1900q0 -104 -73 -177t-177 -73h-1900q-103 0 -176.5 73.5t-73.5 176.5zM400 700h500q141 0 231 73.5t90 216.5q0 210 -155 254q60 29 84 79.5t24 127.5q0 136 -63.5 192.5t-210.5 56.5 h-500v-1000zM600 900v200h251q80 0 116 -20t36 -89q0 -55 -36 -72.5t-109 -18.5h-258zM600 1300v200h218q28 0 45.5 -1t39 -6.5t34 -15.5t21 -29t8.5 -46q0 -57 -34.5 -79.5t-97.5 -22.5h-234zM1291 1056q0 -168 97.5 -274t264.5 -106q80 0 149 25.5t110 62.5t64 73.5 t24 62.5h-197q-57 -63 -147 -63q-79 0 -122.5 43t-47.5 120h514q0 224 -83 325t-264 101q-160 0 -261 -104.5t-101 -265.5zM1400 1500h500v100h-500v-100zM1486 1100q7 191 161 191q50 0 84 -19.5t47.5 -47.5t20 -56.5t5.5 -47.5l-2 -20h-316z" />
<glyph unicode="&#xe022;" d="M0 250v1900q0 104 73 177t177 73h1900q104 0 177 -73t73 -177v-1900q0 -104 -73 -177t-177 -73h-1900q-104 0 -177 73t-73 177zM400 1100q0 -135 68 -249.5t181 -180.5q-49 57 -49 130v200q0 82 59 141t141 59h800q83 0 141.5 -58.5t58.5 -141.5v-200q0 -73 -49 -130 q113 66 181 180.5t68 249.5v100q0 96 -20.5 166.5t-73.5 133.5l-6 400l-400 -200h-600l-400 200v-400q-100 -131 -100 -300v-100zM800 800h200v300h-200v-300zM1100 700h200v100h-200v-100zM1400 800h200v300h-200v-300z" />
<glyph unicode="&#xe023;" d="M0 250v1900q0 103 73.5 176.5t176.5 73.5h1900q103 0 176.5 -73.5t73.5 -176.5v-1900q0 -104 -73 -177t-177 -73h-1900q-103 0 -176.5 73.5t-73.5 176.5zM500 700q0 -124 88 -212t212 -88h800q124 0 212 88t88 212v200q0 124 -88 212t-212 88h-800q-124 0 -212 -88 t-88 -212v-200zM568 2100l149 -486v-314h183v337l123 463h-164l-63 -260l-65 260h-163zM647 987v82h267v-82h-90v-482h-87v482h-90zM914 573v348h77v-319q0 -16 5 -22q5 -7 16 -7q9 0 21 9q13 8 24 23v316h77v-416h-77v45q-22 -26 -45 -38q-23 -14 -44 -14q-27 0 -41 19 q-13 17 -13 56zM1000 1461q0 -37 1 -53t7.5 -39t21.5 -38q26 -27 49 -38t60 -11q76 0 123 47q38 39 38 129v295q0 83 -39 121q-47 47 -110 47q-67 0 -117 -44q-22 -20 -28 -47.5t-6 -73.5v-295zM1100 1450v311q0 3 4 6t9 5.5t7 4.5q5 5 31 5q21 0 28 -6q1 -1 6.5 -4t10 -5.5 t4.5 -5.5v-311q0 -4 -4 -8.5t-10.5 -8.5t-7.5 -5q-7 -7 -35 -7q-23 0 -27 6q-1 1 -5.5 5t-7.5 8.5t-3 9.5zM1210 505v564h78v-182q18 21 34 29q16 10 35 10q36 0 56 -26q20 -28 20 -78v-231q0 -44 -19 -68q-18 -24 -52 -24q-23 0 -41 9q-15 7 -33 29v-32h-78zM1288 584 q11 -11 19 -15q8 -5 18 -5q15 0 21 9q7 8 7 29v215q0 21 -8 32q-9 11 -24 11q-9 0 -17 -4t-16 -13v-259zM1399.5 1367.5q0.5 -6.5 1.5 -16.5t3.5 -16.5t6.5 -12.5q13 -18 25.5 -26t34.5 -8q44 0 80 21q4 2 17 6t22.5 8t9.5 8v-31h100v600h-100v-439q0 -4 -9.5 -8t-21 -7.5 t-14.5 -5.5q-12 -9 -40 -9q-15 3 -15 18v451h-100v-490q0 -7 -0.5 -21.5t0 -21zM1491 622v187q0 55 33 88q33 34 85 34q53 0 81 -31q29 -32 29 -91v-106h-148v-79q0 -34 7 -45q9 -13 27 -13t27 11q7 10 7 47v29h80v-31q0 -64 -29 -96q-30 -33 -87 -33q-51 0 -82 34 q-30 35 -30 95zM1571 767h68v43q0 26 -8 37q-7 12 -26 12t-26 -12q-8 -9 -8 -37v-43z" />
<glyph unicode="&#xe024;" d="M0 250v1900q0 103 73.5 176.5t176.5 73.5h1900q103 0 176.5 -73.5t73.5 -176.5v-1900q0 -104 -73 -177t-177 -73h-1900q-103 0 -176.5 73.5t-73.5 176.5zM415 1350q0 -90 18 -167t45.5 -134t76.5 -116t93.5 -99.5t115.5 -98.5q92 -75 224.5 -141.5t224 -98.5t155.5 -47 q75 -16 97.5 -7t37.5 60q3 14 3.5 40t-3 52.5t1 65t14 77.5t38 90t72.5 102q147 172 212 274q250 392 -6 648q-70 71 -164 95.5t-185.5 8t-181.5 -56t-159.5 -90.5t-113.5 -102q-54 -63 -85 -95.5t-56 -49t-44.5 -16.5h-48.5q4 2 23.5 7.5t30.5 11t26 16t23.5 27.5t10.5 41 q4 39 -28 65.5t-77.5 35t-86.5 -0.5q-32 -7 -63 -18.5t-77.5 -41t-80 -70t-58.5 -110.5t-25 -157z" />
<glyph unicode="&#xe025;" d="M1 250v1900q0 103 73 176t176 73h1900q103 0 176 -73t73 -176v-53l-1048 -1187l-185 285q29 82 29 156q0 45 -10 91q-31 168 -164 279q-64 53 -141 82q-81 30 -167 30q-97 0 -187 -38q-84 -35 -154 -103q-64 -64 -103 -153q-38 -91 -38 -188t38 -187q38 -88 103 -153 q70 -68 154 -103q90 -38 187 -38h4l3 1q72 0 153 29l477 -395l1049 927v-1182q0 -103 -73 -176t-176 -73h-1900q-103 0 -176 73t-73 176zM316 1351q0 164 116.5 280.5t280.5 116.5t280.5 -116.5t116.5 -280.5t-116.5 -280t-280.5 -116t-280.5 116t-116.5 280z" />
<glyph unicode="&#xe026;" d="M0 250v1900q0 103 73.5 176.5t176.5 73.5h1900q103 0 176.5 -73.5t73.5 -176.5v-1900q0 -104 -73 -177t-177 -73h-1900q-103 0 -176.5 73.5t-73.5 176.5zM474.5 1156q25.5 -189 131.5 -334q94 -128 234 -197t309 -69q73 0 154 14q27 4 65 15q26 -53 56.5 -79t72.5 -45 q75 -34 187 -34q36 0 43 50q5 36 -8.5 81t-41.5 52l-10 2q-24 7 -35 10.5t-33.5 16.5t-41.5 31q168 107 253.5 296t69.5 418q-20 294 -205 469.5t-475 175.5q-20 0 -62 -2q-126 -8 -236 -56t-186 -120.5t-127.5 -152t-78.5 -164.5q-61 -189 -35.5 -378zM843 1335 q5 147 46 260.5t106 160.5q50 38 127 47q26 3 51 3q101 0 165.5 -43t98.5 -98q76 -123 80.5 -340.5t-64.5 -371.5q-2 1 -5 4.5t-4 5.5q-35 30 -76.5 50.5t-76.5 28t-64.5 10.5t-46.5 2l-17 -1q-32 0 -59 -42.5t-28 -77.5q-3 -38 37 -41q123 -7 177 -98q-48 -16 -107 -16 q-125 0 -200 64q-69 59 -107.5 195t-32.5 298z" />
<glyph unicode="&#xe027;" d="M0 250v1900q0 103 73.5 176.5t176.5 73.5h1900q103 0 176.5 -73.5t73.5 -176.5v-1900q0 -104 -73 -177t-177 -73h-1900q-103 0 -176.5 73.5t-73.5 176.5zM493 1019q0 -143 54 -273.5t155 -230.5q101 -101 231.5 -155.5t272.5 -54.5q143 0 273.5 54.5t231.5 155.5t155 231 t54 273t-54 273t-155 232q-101 101 -231.5 154.5t-273.5 53.5q-142 0 -271.5 -53t-229.5 -153v448q0 44 -31.5 75t-74.5 31q-44 0 -75 -31t-31 -75v-955zM705 1019q0 208 147 355q146 146 354 146q207 0 355 -146q147 -147 147 -355t-147 -355q-149 -147 -355 -147t-355 147 q-146 148 -146 355zM857 970q0 -72 50.5 -122.5t122.5 -50.5q71 0 122 50.5t51 122.5q0 71 -51 122t-122 51q-72 0 -122.5 -51t-50.5 -122z" />
<glyph unicode="&#xe028;" d="M0 250v1900q0 103 73.5 176.5t176.5 73.5h1900q103 0 176.5 -73.5t73.5 -176.5v-1900q0 -104 -73 -177t-177 -73h-1900q-103 0 -176.5 73.5t-73.5 176.5zM659 969q-9 -260 131.5 -431t372.5 -194q155 -16 284.5 60t204 215.5t79.5 310.5q0 268 -126.5 419t-354.5 176 q-100 11 -204.5 -28.5t-188.5 -113.5t-139 -184t-59 -230zM895 2000q7 -25 27 -40.5t46 -15.5q10 0 19 3q90 23 208 23q134 0 256.5 -30t205.5 -84q19 -12 41 -12q42 0 64 35q17 25 10 56t-33 48q-102 66 -244.5 102t-299.5 36q-137 0 -246 -28q-31 -9 -46 -35 q-16 -28 -8 -58zM928 1808q6 -22 24 -36t40 -14q8 0 17 3q81 21 176 21q109 0 214 -29t182 -80q17 -11 36 -11q36 0 55 29q16 24 10 50q-5 28 -28 42q-95 63 -217 97.5t-251 34.5q-112 0 -211 -27q-27 -6 -41 -30q-13 -26 -6 -50zM945 1635q4 -20 19.5 -33t35.5 -13l12 1 q94 17 176 17q190 0 327 -90q14 -10 32 -10q31 0 47 26q13 20 8.5 43t-24.5 36q-167 109 -388 109q-101 0 -200 -20q-21 -3 -36 -23q-14 -20 -9 -43zM972 944q5 140 76 230.5t152 90.5h6q106 -3 160 -83q58 -84 53 -249q-4 -147 -66.5 -229.5t-168.5 -82.5q-100 3 -156 85 q-61 88 -56 238z" />
<glyph unicode="&#xe029;" d="M0 250v1900q0 104 73 177t177 73h1900q104 0 177 -73t73 -177v-1900q0 -104 -73 -177t-177 -73h-1900q-104 0 -177 73t-73 177zM300 850q0 -212 117 -321q13 -12 26 -21.5t29.5 -16t28 -11.5t33 -8t30.5 -4.5t35 -2.5t33 -1h37h35q79 0 148 21.5t125.5 65.5t89.5 120.5 t33 178.5v700q0 17 11 29t28 17t30.5 7t25.5 2q57 0 81 -19q1 -1 6.5 -5t8.5 -7t6 -9.5t3 -14.5v-132l150 -65l150 65v132q0 171 -111 283t-289 112q-177 0 -288.5 -112t-111.5 -283v-700q0 -51 -31 -72t-69 -21q-37 0 -68.5 21t-31.5 72v250h-300v-250zM1300 850 q0 -200 127 -302q116 -93 263 -93q179 0 294.5 112.5t115.5 282.5v270l-300 -4v-266q0 -17 -11.5 -29.5t-30 -17t-32 -6.5t-26.5 -2t-26.5 2t-32 6.5t-30 17t-11.5 29.5v290l-150 -65l-150 65v-290z" />
<glyph unicode="&#xe030;" d="M0 250v1900q0 103 73.5 176.5t176.5 73.5h1900q104 0 177 -73t73 -177v-1900q0 -103 -73.5 -176.5t-176.5 -73.5h-1900q-103 0 -176.5 73.5t-73.5 176.5zM292 1200q0 -89 69 -151l139 -249v-150q0 -50 50 -50h100q50 0 50 50v550q0 88 -59 149t-145 61t-145 -61t-59 -149 zM616 1466l10 -3q78 -36 126 -108t48 -155v-77l10 15q169 152 387 152q222 0 391 -152l12 -15v77q0 83 48 155t126 108l13 3l-2 9q-58 192 -221 313.5t-363 121.5q-201 0 -364 -121.5t-220 -313.5zM800 700h800v300l4 53q-174 157 -399 157q-116 0 -224 -42.5t-181 -122.5 v-345zM1700 650q0 -50 50 -50h100q50 0 50 50v88l5 57l139 252q69 64 69 153q0 87 -60.5 148.5t-147.5 61.5t-146 -61.5t-59 -148.5v-550z" />
<glyph unicode="&#xe031;" d="M0 250v1900q0 103 73.5 176.5t176.5 73.5h1900q103 0 176.5 -73.5t73.5 -176.5v-1900q0 -104 -73 -177t-177 -73h-550v1000h300v300h-299v167q0 71 33 102t126 31h140v400h-400q-48 0 -89 -11t-70 -27.5t-52 -43.5t-37.5 -51.5t-25 -59t-15.5 -59t-7.5 -58.5t-3 -49.5 t-0.5 -40.5v-300h-200v-300h200v-1000h-950q-103 0 -176.5 73.5t-73.5 176.5z" />
<glyph unicode="&#xe032;" d="M0 250v1900q0 103 73.5 176.5t176.5 73.5h1900q103 0 176.5 -73.5t73.5 -176.5v-1900q0 -104 -73 -177t-177 -73h-1900q-103 0 -176.5 73.5t-73.5 176.5zM346 604q249 -161 549 -161q191 0 358.5 60.5t286.5 162t205 233.5t128 276t42 288q0 31 -1 46q107 78 179 186 q-96 -43 -206 -57q117 71 158 199q-103 -63 -228 -87q-50 53 -117.5 83t-143.5 30q-148 0 -253.5 -105.5t-105.5 -253.5q0 -42 9 -81q-220 11 -412 110t-327 264q-48 -85 -48 -180q0 -92 43 -170.5t116 -127.5q-83 1 -162 44v-4q0 -129 82 -228t206 -124q-46 -12 -95 -12 q-34 0 -67 6q34 -108 126.5 -177.5t208.5 -71.5q-196 -153 -446 -153q-38 0 -85 5z" />
<glyph unicode="&#xe033;" d="M0 250v1350h551q-66 -143 -66 -300q0 -146 56.5 -278.5t152.5 -228t228.5 -152.5t277.5 -57t277.5 57t228.5 152.5t152.5 228t56.5 278.5q0 157 -66 300h551v-1350q0 -104 -73 -177t-177 -73h-1900q-103 0 -176.5 73.5t-73.5 176.5zM0 1700v450q0 89 57 158.5t143 86.5 v-595h100v600h100v-600h100v600h100v-600h89q-49 -51 -82 -100h-607zM648 1300q0 150 74 277t201 201t277 74t277 -74t201 -201t74 -277t-74 -277t-201 -201t-277 -74t-277 74t-201 201t-74 277zM700 1811v589h1450q103 0 176.5 -73.5t73.5 -176.5v-450h-607 q-98 145 -254.5 230t-338.5 85q-144 0 -272.5 -54t-227.5 -150zM766 1300q0 -180 127 -307t307 -127t307 127t127 307t-127 307t-307 127t-307 -127t-127 -307zM1800 1900q0 -41 29.5 -70.5t70.5 -29.5h200q41 0 70.5 29.5t29.5 70.5v200q0 41 -29.5 70.5t-70.5 29.5h-200 q-41 0 -70.5 -29.5t-29.5 -70.5v-200z" />
<glyph unicode="&#xe034;" d="M0 250v1900q0 103 73.5 176.5t176.5 73.5h1900q103 0 176.5 -73.5t73.5 -176.5v-1900q0 -104 -73 -177t-177 -73h-1900q-103 0 -176.5 73.5t-73.5 176.5zM300 400q0 -41 29.5 -70.5t70.5 -29.5h600q41 0 70.5 29.5t29.5 70.5v600q0 41 -29.5 70.5t-70.5 29.5h-600 q-41 0 -70.5 -29.5t-29.5 -70.5v-600zM300 1400q0 -41 29.5 -70.5t70.5 -29.5h600q41 0 70.5 29.5t29.5 70.5v600q0 41 -29.5 70.5t-70.5 29.5h-600q-41 0 -70.5 -29.5t-29.5 -70.5v-600zM484 700q0 89 63.5 152.5t152.5 63.5t152.5 -63.5t63.5 -152.5t-63.5 -152.5 t-152.5 -63.5t-152.5 63.5t-63.5 152.5zM484 1700q0 89 63.5 152.5t152.5 63.5t152.5 -63.5t63.5 -152.5t-63.5 -152.5t-152.5 -63.5t-152.5 63.5t-63.5 152.5zM1300 400q0 -41 29.5 -70.5t70.5 -29.5h600q41 0 70.5 29.5t29.5 70.5v600q0 41 -29.5 70.5t-70.5 29.5h-600 q-41 0 -70.5 -29.5t-29.5 -70.5v-600zM1300 1400q0 -41 29.5 -70.5t70.5 -29.5h600q41 0 70.5 29.5t29.5 70.5v600q0 41 -29.5 70.5t-70.5 29.5h-600q-41 0 -70.5 -29.5t-29.5 -70.5v-600zM1484 700q0 89 63.5 152.5t152.5 63.5t152.5 -63.5t63.5 -152.5t-63.5 -152.5 t-152.5 -63.5t-152.5 63.5t-63.5 152.5zM1484 1700q0 89 63.5 152.5t152.5 63.5t152.5 -63.5t63.5 -152.5t-63.5 -152.5t-152.5 -63.5t-152.5 63.5t-63.5 152.5z" />
<glyph unicode="&#xe035;" d="M0 250v1900q0 103 73.5 176.5t176.5 73.5h1900q103 0 176.5 -73.5t73.5 -176.5v-1900q0 -104 -73 -177t-177 -73h-1900q-103 0 -176.5 73.5t-73.5 176.5zM358 1501l76 -97q108 75 126 75q83 0 155 -259l130 -476q96 -259 237 -259q228 0 555 425q318 407 328 641 q15 313 -234 321q-335 11 -454 -375q63 26 119 26q123 0 108 -137q-7 -83 -108 -242q-102 -158 -151 -158q-65 0 -119 245q-17 64 -65 367q-22 137 -79.5 201t-151.5 55q-79 -7 -238 -144q-72 -66 -234 -209z" />
<glyph unicode="&#xe036;" d="M0 250v1900q0 104 73 177t177 73h1900q104 0 177 -73t73 -177v-1900q0 -104 -73 -177t-177 -73h-1900q-104 0 -177 73t-73 177zM400 1225q0 -145 102.5 -247.5t247.5 -102.5t247.5 102.5t102.5 247.5t-102.5 247.5t-247.5 102.5t-247.5 -102.5t-102.5 -247.5zM1300 1225 q0 -145 102.5 -247.5t247.5 -102.5t247.5 102.5t102.5 247.5t-102.5 247.5t-247.5 102.5t-247.5 -102.5t-102.5 -247.5z" />
<glyph unicode="&#xe037;" d="M0 250v1900q0 103 73.5 176.5t176.5 73.5h1900q103 0 176.5 -73.5t73.5 -176.5v-1900q0 -104 -73 -177t-177 -73h-1900q-103 0 -176.5 73.5t-73.5 176.5zM283 1221q0 -112 44 -214.5t118 -176.5t176.5 -118t214.5 -44q124 0 236 53t191 149l8 10l-90 208l-20 -37 q-47 -91 -134.5 -144t-190.5 -53q-152 0 -259.5 107.5t-107.5 259.5t107.5 259.5t259.5 107.5q110 0 203 -60t133 -158l170 -387l20 -44q59 -137 148.5 -200.5t224.5 -64.5q161 0 269 95t108 237q0 134 -68.5 203t-216.5 117l-46 15q-101 31 -138.5 57t-37.5 81 q0 50 35 82.5t88 32.5q82 0 134 -75l10 -14l148 76l-10 18q-94 165 -275 165q-141 0 -225 -79t-84 -210q0 -66 21 -115.5t66.5 -87t101.5 -64.5t141 -55q102 -34 136.5 -59.5t34.5 -82.5q0 -69 -55.5 -113t-144.5 -44q-45 1 -76.5 13t-55 37.5t-38.5 52t-36 73.5 q-74 168 -167 386l-7 17q-70 163 -204 252t-307 89q-112 0 -214.5 -44t-176.5 -118t-118 -176.5t-44 -214.5z" />
<glyph unicode="&#xe038;" d="M0 250v1900q0 103 73.5 176.5t176.5 73.5h1900q104 0 177 -73t73 -177v-1900q0 -103 -73.5 -176.5t-176.5 -73.5h-1900q-103 0 -176.5 73.5t-73.5 176.5zM400 620q0 -91 64 -154.5t154 -63.5t154 63.5t64 154.5q0 90 -64 154t-154 64t-154 -64t-64 -154zM400 1170 q154 0 293.5 -58t247.5 -167q109 -109 166.5 -249.5t57.5 -295.5h315q0 143 -40 282.5t-110.5 258.5t-171 220t-219 172.5t-257.5 111.5t-282 40v-315zM400 1728q177 0 347.5 -48t315.5 -133.5t267.5 -208.5t209 -268.5t134.5 -317.5t48 -352h315q0 223 -59.5 436 t-166.5 393t-259 332t-331.5 258t-390.5 165t-430 59v-315z" />
<glyph unicode="&#xe039;" d="M0 250v1900q0 103 73.5 176.5t176.5 73.5h1900q103 0 176.5 -73.5t73.5 -176.5v-1900q0 -104 -73 -177t-177 -73h-1900q-103 0 -176.5 73.5t-73.5 176.5zM309 1630q-1 -133 67 -251q-17 -80 -17 -162q0 -172 66.5 -328t179 -269.5t268.5 -180.5t327 -68q95 0 196 24 q103 -50 217 -50q138 0 255 67.5t185.5 184t68.5 254.5q0 149 -81 276q5 47 5 86q0 171 -66.5 327.5t-179 269.5t-268.5 180.5t-328 67.5q-58 0 -126 -10q-122 79 -269 80q-136 0 -251 -66.5t-182 -181.5t-67 -250zM799.5 964.5q-11.5 43.5 4 79.5t62.5 48q43 11 77 -15.5 t52.5 -66t47 -83.5t58.5 -60q46 -24 106 -25.5t116.5 21.5t85.5 66q26 44 24.5 80t-29.5 65t-62.5 48t-73.5 30q-27 8 -85.5 22t-93 23.5t-81 29t-80.5 44.5q-78 55 -103.5 148t12.5 181q34 79 110 124t171 58q228 33 368 -66q41 -30 73.5 -79t38.5 -104t-48 -91 q-38 -20 -62.5 -16t-49.5 31t-41.5 56.5t-39 59.5t-42.5 41q-43 23 -106 25t-119.5 -25t-70.5 -79q-9 -34 3.5 -62t36.5 -45.5t62.5 -32.5t69.5 -22.5t71 -16t54 -12.5q52 -14 88 -26.5t80.5 -34t77 -52t53.5 -70.5q31 -62 32 -129t-29 -128t-83 -110.5t-135.5 -78.5 t-179.5 -29q-232 0 -345 130q-23 26 -43.5 65.5t-32 83z" />
<glyph unicode="&#xe040;" d="M0 250v1900q0 103 73.5 176.5t176.5 73.5h1900q103 0 176.5 -73.5t73.5 -176.5v-1900q0 -104 -73 -177t-177 -73h-1900q-103 0 -176.5 73.5t-73.5 176.5zM430 1222q0 -266 172 -461q208 -235 584 -235q163 0 310 52q150 51 278 151l15 11l-86 132l-39 -27 q-84 -60 -160 -91q-142 -60 -307 -60q-239 0 -404 129q-185 146 -185 394q0 225 159 385q176 178 468 178q159 0 286 -65q198 -101 198 -331q0 -158 -73 -252q-69 -92 -136 -92q-29 0 -41 16q-14 19 -14 38l8 43q2 8 16 56l121 407h-209l-22 -70q-2 4 -8.5 15.5t-12.5 20 t-12 14.5q-57 57 -158 57q-168 0 -283 -148q-113 -145 -113 -312q0 -146 77 -228q77 -84 192 -84q114 0 194 74q24 21 45 51q11 -39 45 -73q50 -53 139 -53q166 0 294 151q127 150 127 358q0 265 -200 424q-187 150 -474 150q-352 0 -576 -218q-215 -207 -215 -507z M1015 1159q0 103 64 212q60 105 141 105q38 0 61 -25q23 -28 23 -66q0 -77 -59 -218q-56 -132 -137 -132q-44 0 -68 32q-25 36 -25 92z" />
<glyph unicode="&#xe041;" d="M0 250v1900q0 104 73 177t177 73h1900q104 0 177 -73t73 -177v-1900q0 -104 -73 -177t-177 -73h-1900q-104 0 -177 73t-73 177zM371 1800q1 0 1 -54q0 -200 40 -403q72 -364 273 -649q145 -208 328 -332q50 -35 96 -35q47 0 93 36q130 99 262 260t200 303q69 -12 139 -12 q98 0 191 30l6 6v302l-26 -17q-2 -2 -30.5 -12.5t-84.5 -22t-108 -11.5q-83 0 -159 41.5t-126 105.5q-95 123 -94 322q0 62 66 74q6 1 36 1q57 -5 68 -71q4 -23 6 -49t2 -50.5t-1 -49.5t-3 -47t-4.5 -42.5t-5 -36.5t-4.5 -28t-4 -19l-1 -7l-8 -33h304l3 24q24 239 14 370 q-12 161 -135 258q-101 80 -241 80q-31 0 -73 -5q-135 -20 -222 -117.5t-94 -237.5q-5 -95 17 -192q58 -288 293 -445q-112 -222 -275 -367q-123 128 -198.5 233t-125.5 229q-111 275 -115 615l1 55h-301z" />
<glyph unicode="&#xe042;" d="M0 250v1900q0 104 73 177t177 73h1900q104 0 177 -73t73 -177v-1900q0 -104 -73 -177t-177 -73h-1900q-104 0 -177 73t-73 177zM393 720q0 -13 10 -21.5t27 -8.5h396q13 0 21.5 8.5t8.5 21.5v78q0 93 -63 161.5t-158 76.5h-10l-19 -1q-90 -7 -151.5 -76t-61.5 -161v-78z M413 1273q0 -87 62 -149t150 -62q87 0 149 62t62 149t-62 149t-149 62q-88 0 -150 -62t-62 -149zM893 722q0 -14 10.5 -23t29.5 -9h440q13 0 22.5 9.5t9.5 22.5v87q0 102 -68 178t-168 85h-12h-16h-13q-99 -9 -167 -85t-68 -178v-87zM915 1337q0 -97 68.5 -165.5 t165.5 -68.5t165.5 68.5t68.5 165.5q0 96 -68.5 164.5t-165.5 68.5t-165.5 -68.5t-68.5 -164.5zM1442 725q0 -15 12 -25t32 -10h488q15 0 25 10.5t10 24.5v96q0 113 -75 197t-185 94l-11 1h-25l-10 -1q-110 -10 -185.5 -94t-75.5 -197v-96zM1467 1408q0 -107 76 -183 t183 -76t183 76t76 183q0 106 -76 182t-183 76t-183 -75.5t-76 -182.5z" />
<glyph unicode="&#xe043;" d="M0 250v1900q0 103 73.5 176.5t176.5 73.5h1900q103 0 176.5 -73.5t73.5 -176.5v-1900q0 -104 -73 -177t-177 -73h-1900q-103 0 -176.5 73.5t-73.5 176.5zM486 1286q0 -218 109 -341t303 -123q149 0 245 110v-23q0 -151 -59 -221.5t-186 -70.5q-22 0 -44 2.5t-52.5 11.5 t-54 23.5t-43.5 42.5t-27 66l-4 23h-158l2 -30q4 -60 29.5 -109t63 -81t87 -53.5t99.5 -30.5t102 -9q204 0 304.5 108t100.5 328v809h-160v-84q-46 51 -110.5 80t-134.5 29q-182 0 -297 -127.5t-115 -329.5zM653 1275q0 58 13.5 111.5t41 100.5t76.5 75.5t114 28.5 q63 0 111 -28.5t74.5 -75.5t39.5 -100.5t13 -111.5q0 -120 -62 -210.5t-176 -90.5q-65 0 -114 27t-76.5 72t-41 96t-13.5 106zM1393 797h244v448q0 120 55 191.5t147 71.5q39 0 75 -8l34 -6v241l-38 4q-24 4 -61 4q-62 0 -122 -31.5t-102 -80.5v89h-232v-923z" />
<glyph unicode="&#xe045;" d="M0 250v1900q0 103 73.5 176.5t176.5 73.5h1900q103 0 176.5 -73.5t73.5 -176.5v-1900q0 -104 -73 -177t-177 -73h-1900q-103 0 -176.5 73.5t-73.5 176.5zM498 775l528 -78v523h-528v-445zM498 1271h528v516l-528 -76v-440zM1078 690l722 -107v637h-722v-530zM1078 1271 h722v629l-722 -105v-524z" />
<glyph unicode="&#xe046;" d="M0 250v1900q0 104 73 177t177 73h1900q104 0 177 -73t73 -177v-1900q0 -104 -73 -177t-177 -73h-1900q-104 0 -177 73t-73 177zM563 1068q0 -54 10 -72q12 -21 43 -21q6 0 12 0.5t11 1.5t8.5 2.5t5.5 2.5h2l383 85l11 5q11 6 17 10.5t14 19.5t8 38q0 13 -5.5 25.5 t-12.5 20.5t-16.5 15t-13 9t-6.5 4l-328 166l-4 1q-3 1 -8.5 3t-12 4t-14.5 3t-15 1q-15 0 -27 -7q-38 -22 -41 -55zM727.5 1861q1.5 -9 4.5 -18t7.5 -16.5t8 -13t6.5 -9.5l3 -4l318 -432q28 -28 63 -28q6 0 18 2q22 6 36 26.5t17 37.5t1 20v523q0 15 -10 46t-30 43 q-29 19 -52 19q-1 0 -29 -6l-304 -114q-2 0 -9.5 -3.5t-20.5 -13.5t-21 -22q-5 -8 -6.5 -18t0 -19zM811 627q11 -35 45 -53l258 -81l4 -1q5 0 12.5 -1t14.5 -1q18 0 29 4q35 10 35 71l5 382q0 5 -1.5 13.5t-10.5 24t-24 23.5q-12 6 -25 6t-28 -6.5t-22.5 -12t-8.5 -7.5 l-257 -283q-5 -6 -11 -16t-12.5 -29.5t-2.5 -32.5zM1318 1220q17 -29 62 -29q18 0 20 2l368 107q56 28 63 54q4 15 1.5 31t-6 25.5t-5.5 12.5l-175 206q0 2 -5.5 8.5t-20.5 15t-33 9.5q-8 0 -15.5 -2.5t-13 -6t-11 -8.5t-9 -9.5t-6.5 -8.5t-4 -7l-2 -2l-207 -326 q-20 -40 -1 -72zM1323 1031.5q-1 -21.5 3 -34.5t7 -17l197 -329q6 -11 27 -29t41 -18q14 0 29.5 6.5t23.5 12t11 8.5l156 223l4 9q4 9 8.5 23t4.5 26q0 19 -15 32.5t-27.5 17.5t-16.5 4l-368 118h-3q-3 1 -7.5 1.5t-9.5 0.5q-31 0 -50 -19q-14 -14 -15 -35.5z" />
<glyph unicode="&#xe047;" d="M0 250v1900q0 103 73.5 176.5t176.5 73.5h1900q103 0 176.5 -73.5t73.5 -176.5v-1900q0 -104 -73 -177t-177 -73h-1900q-103 0 -176.5 73.5t-73.5 176.5zM312.5 903.5q-1.5 -36.5 34.5 -72.5t102 -55q171 -56 462 -9l28 5v149l-142 -51q-39 -14 -89.5 -17t-81.5 8 q-32 11 -27 28t44 31l296 106v167l-411 -147q-124 -39 -182 -82q-32 -24 -33.5 -60.5zM995 700l308 -91v1032q0 23 1 38t4.5 31.5t11.5 23t20 2.5q56 -17 56 -109v-425q67 -32 125.5 -32.5t101.5 28.5t68 88.5t25 143.5q0 177 -72.5 274.5t-253.5 159.5q-152 51 -395 95 v-1259zM1337 619l627 226q84 31 119 74q15 23 15 48t-34 53t-98 48q-88 34 -194.5 46t-203.5 2q-56 -6 -109.5 -17.5t-78.5 -20.5l-26 -8l-17 -6v-172l307 108q117 27 172 9q32 -11 26.5 -28t-44.5 -31l-461 -164v-167z" />
<glyph unicode="&#xe048;" d="M0 250v1900q0 104 73 177t177 73h1900q104 0 177 -73t73 -177v-1900q0 -104 -73 -177t-177 -73h-1900q-104 0 -177 73t-73 177zM476 1200q0 -253 158 -451q-2 6 -4.5 16.5t-3.5 47.5t6 79t31 109.5t64 139.5t112.5 168.5t169.5 196.5q-94 58 -178.5 105t-122.5 65l-37 17 q-93 -99 -144 -225.5t-51 -267.5zM677 702q100 -105 235.5 -164t286.5 -59q152 0 287.5 59.5t235.5 164.5q-3 13 -11 36t-45.5 95.5t-89.5 145t-153 174.5t-226 195q-113 -83 -208 -180t-150 -176.5t-94 -147t-53 -105.5zM730 1749q7 4 21 10t60.5 13t97.5 1.5t130 -37.5 t160 -91q52 47 106 78t99 43.5t87 16t73.5 -2t55 -12t36.5 -12.5l12 -7q-213 173 -469 173q-267 0 -469 -173zM1390 1506q97 -100 170 -196t112 -169t64 -138.5t31 -110.5t6.5 -78.5t-3.5 -49.5l-5 -15q158 200 158 451q0 141 -51 267.5t-144 225.5q-126 -56 -338 -187z" />
<glyph unicode="&#xe049;" d="M0 250v1900q0 103 73.5 176.5t176.5 73.5h1900q103 0 176.5 -73.5t73.5 -176.5v-1900q0 -104 -73 -177t-177 -73h-1900q-103 0 -176.5 73.5t-73.5 176.5zM500 1050q0 -41 29.5 -70.5t70.5 -29.5t70.5 29.5t29.5 70.5v450q0 41 -29.5 70.5t-70.5 29.5t-70.5 -29.5 t-29.5 -70.5v-450zM800 854q0 -22 16 -38t39 -16h45v-303q0 -40 29.5 -68.5t70.5 -28.5t70.5 28.5t29.5 68.5v303h200v-303q0 -40 30 -68.5t70 -28.5q41 0 70.5 28.5t29.5 68.5v303h46q22 0 38 16t16 38v646h-800v-646zM800 1600h800q0 9 -1.5 24.5t-11 60t-25.5 84.5 t-49.5 87t-78.5 78l88 112q12 19 6.5 41t-24.5 35q-13 8 -29 8q-29 0 -45 -23l-98 -127q-65 20 -130 20q-68 0 -133 -20l-97 124q-16 26 -47 26q-15 0 -29 -8q-20 -13 -24.5 -35.5t8.5 -43.5l86 -109q-44 -31 -77.5 -77t-49.5 -89.5t-25.5 -82t-11.5 -61.5zM900 1754 q0 23 16 39t38 16q23 0 39 -16t16 -39t-16 -38.5t-39 -15.5q-22 0 -38 16t-16 38zM1391 1754q0 22 16.5 38.5t38.5 16.5t38 -16t16 -39q0 -22 -16 -38t-38 -16q-23 0 -39 16t-16 38zM1700 1050q0 -41 29.5 -70.5t70.5 -29.5t70.5 29.5t29.5 70.5v450q0 41 -29.5 70.5 t-70.5 29.5t-70.5 -29.5t-29.5 -70.5v-450z" />
<glyph unicode="&#xe050;" d="M0 250q0 -103 73.5 -176.5t176.5 -73.5h1900q103 0 176.5 73.5t73.5 176.5v1900q0 103 -73.5 176.5t-176.5 73.5h-1900q-103 0 -176.5 -73.5t-73.5 -176.5v-1900zM360 1602q0 55 41 94t100 39q58 0 99 -39t41 -94t-41 -94t-99 -39q-59 0 -100 39t-41 94zM399 800v605h203 v-605h-203zM683 1231q0 216 114.5 348.5t301.5 132.5q183 0 298.5 -134.5t115.5 -346.5q0 -202 -120 -341.5t-294 -139.5q-187 0 -301.5 133t-114.5 348zM892 1231q0 -144 62.5 -221t145.5 -77q84 0 142.5 81t60.5 198q1 75 -25.5 147.5t-71.5 118.5q-50 51 -106 51 q-83 0 -145.5 -77t-62.5 -221zM1514 823l59 180q12 -8 33 -20.5t78.5 -31.5t106.5 -15q133 9 130 114q-1 34 -48.5 67t-133.5 60q-104 33 -156.5 129.5t-37.5 194.5q14 89 101.5 150t212.5 61q62 0 119.5 -17t83.5 -34l26 -17l-46 -171q-6 7 -17.5 17t-51.5 27t-84 17 q-49 0 -87.5 -24.5t-41.5 -55.5q-4 -37 14.5 -62t92.5 -63q7 -4 33 -17t36 -18.5t34.5 -19.5t36 -23t32 -25t30.5 -29.5t23.5 -33t19.5 -38.5t9.5 -42.5t2.5 -49.5q-3 -54 -23.5 -98t-44 -69.5t-60.5 -47t-57 -29t-50 -16.5q-31 -9 -84 -11q-72 0 -145 15t-110 31z" />
<glyph unicode="&#xf8ff;" d="M0 250v1900q0 104 73 177t177 73h1900q104 0 177 -73t73 -177v-1900q0 -104 -73 -177t-177 -73h-1900q-104 0 -177 73t-73 177zM478.5 1322.5q-13.5 -119.5 9.5 -235t65.5 -220.5t98.5 -187q34 -50 58 -80t59.5 -66t72.5 -53t77 -16q50 2 129.5 35.5t149.5 33.5 q54 0 100.5 -17t89.5 -33.5t89 -15.5q42 0 78.5 16.5t70 50t56 63t54.5 77.5q73 103 119 242q-8 3 -25.5 11t-55 36t-68 63.5t-54.5 97.5t-25 134q-1 60 18.5 116t42 89.5t56 64.5t44 38.5t23.5 15.5q-35 51 -82 87t-93 52t-77.5 22t-58.5 7q-57 6 -123 -13.5t-121.5 -42 t-80.5 -22.5q-28 0 -124 38t-157 36q-106 -1 -199.5 -58.5t-148.5 -153.5q-54 -93 -67.5 -212.5zM1162 1770q68 -5 136.5 29t115.5 91q46 57 70.5 128.5t16.5 143.5q-63 -3 -133.5 -40t-116.5 -90q-44 -51 -70.5 -122.5t-18.5 -139.5z" />
</font>
</defs>
</svg>
